#TITLE:Boya boya bay;
#SUBTITLE:;
#ARTIST:Djumbo;
#TITLETRANSLIT:;
#SUBTITLETRANSLIT:;
#ARTISTTRANSLIT:;
#CREDIT:;
#BANNER:Boya boya bay-logo.jpg;
#BACKGROUND:Boya boya bay.jpg;
#LYRICSPATH:;
#CDTITLE:Lan.png;
#MUSIC:Boya boya bay.mp3;
#OFFSET:0.000;
#SAMPLESTART:100.000;
#SAMPLELENGTH:12.000;
#SELECTABLE:YES;
#BPMS:0.000=109.960;
#STOPS:;
#BGCHANGES:;
// cache tags:
#FIRSTBEAT:20.000;
#LASTBEAT:280.000;
#SONGFILENAME:Songs/Super Dancer Online/Boya boya bay/Boya boya bay.sm;
#HASMUSIC:1;
#HASBANNER:1;
#MUSICLENGTH:165.840;
// end cache tags

//---------------dance-single - sky----------------
#NOTES:
     dance-single:
     sky:
     Hard:
     9:
     0.798,0.886,1.000,0.012,0.742,718.000,206.000,2.000,0.000,2.000:

0000
0000
0000
0000
,
0000
0000
0000
0000
,
0000
0000
0000
0000
,
0000
0000
0000
0000
,
0000
0000
0000
0000
,
1000
0000
0001
0010
0100
0000
0011
0000
1000
0000
0010
0100
0001
0000
0110
0000
,
1000
0000
0100
0001
1000
0000
0011
0000
0100
0000
0010
0001
0100
0000
0011
0000
,
1000
0000
0010
0100
1000
0000
1001
0000
0100
0000
1000
0010
0001
0000
0110
0000
,
0001
0000
0010
0100
0001
0000
1010
0000
0100
0000
1000
0010
0001
0100
1000
0010
,
1001
0000
0100
0010
0001
0000
1100
0000
0010
0000
0100
0001
0010
0000
1100
0000
,
0110
0000
1000
0010
0001
0000
0101
0000
0010
0000
0001
0010
0100
0000
1100
0000
,
0011
0000
0010
0100
0001
0000
0110
0000
0001
0000
1000
0010
0001
0000
1100
0000
,
0001
0000
0010
0100
1000
0000
0011
0000
1001
0000
0100
0000
0010
0000
0001
0000
,
0011
0000
0000
0100
0001
1000
0100
0000
0011
0000
0100
0000
1001
0000
0100
0000
,
0011
0000
0000
1000
0001
0010
0100
0000
1001
0000
0010
0000
0101
0000
0010
0000
,
1001
0000
0000
0100
0001
1000
0100
0000
0011
0000
1000
0000
0101
0000
1000
0000
,
0011
0000
0000
0100
0001
0100
0010
0000
0101
0000
0010
0000
1001
0000
0010
0000
,
0101
0000
0000
1000
0001
1000
0100
0000
0011
0000
0100
0000
1001
0000
0100
0000
,
0011
0000
0000
1000
0001
0010
1000
0000
0101
0000
0010
0000
1001
0000
0100
0000
,
1001
0000
0000
0100
0001
1000
0010
0000
1001
0000
0010
0000
0101
0000
1000
0000
,
0001
0000
1000
0100
0010
0001
0010
0000
1000
0000
0001
0010
0100
1000
0001
0000
,
0110
0000
0010
0001
1100
0010
0100
0000
1001
0000
0100
0010
0101
1000
0100
0000
,
0011
0000
0100
0010
1001
0100
1000
0000
0110
0000
0100
0010
1100
0001
0010
0000
,
0101
0010
1000
0001
1100
0010
0000
0000
0110
0000
0010
0001
1010
0100
0001
0000
,
1010
0000
0001
1000
0110
0001
1000
0000
0011
0000
0010
1000
0101
0010
0100
0000
,
1100
0000
0010
0100
1001
0010
0100
0000
0011
0000
0010
0100
1010
0001
0100
0000
,
1001
0000
0100
0001
0110
1000
0001
0000
0011
0000
0100
0001
0110
1000
0100
0000
,
1001
0000
0100
0001
1010
0100
0001
0000
1100
0000
0001
0100
0011
1000
0001
0000
,
1001
0000
0010
0100
0011
1000
0010
0000
0101
0000
0010
0001
1100
0010
0100
0000
,
1001
0000
0000
0000
0001
0000
0000
0000
0001
0000
0000
0100
0100
0000
0010
0000
,
0011
0100
0010
1000
0101
1000
0010
0001
1100
0001
0100
0010
1001
0010
0100
0001
,
1100
0001
0100
0010
0101
1000
0010
0001
0110
1000
0010
0001
1010
0001
0100
0010
,
1001
0100
0001
0010
0101
1000
0010
0100
0011
0100
0001
0010
1100
0001
0100
0010
,
1001
0010
0100
0001
1010
0100
0001
0100
0011
1000
0010
0100
1001
0100
0001
1000
,
0110
0001
1000
0100
0011
1000
0010
0100
1010
0100
0001
1000
0101
1000
0001
0010
,
1100
0001
0100
1000
0011
1000
0010
0001
0110
1000
0001
0100
1010
0001
0100
0010
,
1001
0010
0100
0001
1100
0001
0100
0010
1001
0000
0010
0000
0001
0000
0010
0000
,
1001
0000
0000
0100
1000
0001
0010
0000
1100
0000
0001
0000
1010
0000
0001
0000
,
1100
0000
0000
0001
1000
0100
0010
0000
1001
0000
0100
0000
1001
0000
0010
0000
,
1001
0000
0000
0100
1000
0001
0010
0000
1001
0000
0100
0000
1010
0000
0001
0000
,
1000
0000
0001
0010
0100
1000
0100
0000
0001
0000
1000
0100
0010
0001
0010
0000
,
1100
0000
0000
0000
0110
0000
0000
0000
0011
0000
0000
1100
0100
0000
0010
0000
,
1100
0100
0010
0001
0011
0010
0100
1000
1100
0100
0010
0001
0011
0010
0100
1000
,
0011
0000
0000
0000
0110
0000
0000
0000
1100
0000
0000
0011
0010
0000
0100
0000
,
0011
0010
0100
1000
1100
0100
0010
0001
0011
0010
0100
1000
1100
0100
0010
0001
,
1100
0000
0000
0000
0110
0000
0000
0000
0011
0000
0000
1100
0100
0000
0010
0000
,
1100
0100
0010
0001
0011
0010
0100
1000
1100
0100
0010
0001
0011
0010
0100
1000
,
0011
0000
0000
0000
0110
0000
0000
0000
1100
0000
0000
0011
0010
0000
0100
0000
,
0011
0010
0100
1000
1100
0100
0010
0001
0011
0010
0100
1000
1100
0100
0010
0001
,
2000
0000
0000
0000
0000
0000
0000
0000
0100
0010
0001
0010
0100
0010
0001
0010
,
0100
0010
0001
0010
0100
0010
0001
0010
0100
0010
0001
0010
0100
0010
0001
0010
,
3101
0000
0011
0000
1001
0000
0101
0010
,
1001
0100
1001
0010
0101
0000
1001
0000
,
0011
0000
1001
0000
0101
0000
0011
0100
,
1001
0010
0101
2000
0001
0000
0001
0000
,
3011
0000
0000
0000
0101
0000
0000
0000
1001
0000
0000
1010
0010
0000
0100
0000
,
0011
0100
0010
1000
0101
1000
0010
0001
1100
0001
0100
0010
1001
0010
0100
0001
,
1100
0001
0100
0010
0101
1000
0010
0001
0110
1000
0010
0001
1010
0001
0100
0010
,
1001
0100
0001
0010
0101
1000
0010
0100
0011
0100
0001
0010
1100
0001
0100
0010
,
1001
0010
0100
0001
1010
0100
0001
0100
0011
1000
0010
0100
1001
0100
0001
1000
,
0110
0001
1000
0100
0011
1000
0010
0100
1010
0100
0001
1000
0101
1000
0001
0010
,
1100
0001
0100
1000
0011
1000
0010
0001
0110
1000
0001
0100
1010
0001
0100
0010
,
1001
0010
0100
0001
1100
0001
0100
0010
1001
0000
0010
0000
0100
0000
0010
0000
,
1001
0000
0000
0010
1000
0010
0001
0000
1100
0000
0010
0000
1001
0000
0010
0000
,
1001
0000
0000
0100
1000
0001
0010
0000
1100
0000
0001
0000
1010
0000
0001
0000
,
1100
0000
0000
0001
1000
0100
0010
0000
1001
0000
0100
0000
1010
0000
0001
0000
,
1100
0000
0000
0001
1000
0100
0001
0000
1010
0000
0001
0000
1100
0000
0001
0000
,
1010
0000
0000
0001
1000
0100
0001
0000
1010
0000
0001
0000
1100
0000
0010
0000
,
1100
0000
0000
0010
1000
0010
0001
0000
1100
0000
0001
0000
1010
0000
0001
0000
,
1100
0000
0000
0001
1000
0010
0100
0000
1010
0000
0001
0000
1100
0000
0010
0000
,
1000
0000
0000
0000
;
